Don Jon 2013 R5 DVDRiP XViD MP3 MURDER

seeders: 506
leechers: 53


Added on Nov 15, 2013 by DOCMURDER826848 in Movies
Torrent verified. Downloaded 21,569 times.

  • Movie: Don Jon
  • IMDB link: 2229499
  • Detected quality: DVDRip
  • IMDB rating: 7.6 (2,346 votes)
  • RottenTomatoes: 81% 61%
  • Genres: Drama, Comedy
Available in versions: 1080p720pBlu-RayBDRipHDRiPDVDDVDRip
Don Jon 2013 R5 DVDRiP XViD MP3 MURDER (Size: 1.21 GB)
  Don Jon 2013 R5 DVDRiP XViD MP3 MURDER.mkv 1.21 GB
  DON JON 2013 DVD CVER..MURDER.jpg 798.63 KB
  New Text Document.txt 2.94 KB

Description

image

image

image

image

image

image

image

image

image

image


[font="Comic Sans MS">SOURCE WAS INTERCINEMA..........THANKS GUYS

RUSSIAN AUDIO 4 NOW..............

General
Complete name : Don Jon 2013 R5 DVDRiP XViD MP3 MURDER.mkv
Format : Matroska
Format version : Version 4 / Version 2
File size : 1.21 GiB
Duration : 1h 26mn
Overall bit rate : 2 011 Kbps
Encoded date : UTC 2013-11-15 17:24:30
Writing application : mkvmerge v6.3.0 ('You can't stop me!') built on Jun 28 2013 20:09:41
Writing library : libebml v1.3.0 + libmatroska v1.4.0

Video
ID : 1
Format : MPEG-4 Visual
Format profile : Advanced Simple@L5
Format settings, BVOP : Yes
Format settings, QPel : No
Format settings, GMC : No warppoints
Format settings, Matrix : Default (MPEG)
Codec ID : V_MS/VFW/FOURCC / XVID
Codec ID/Hint : XviD
Duration : 1h 26mn
Bit rate : 1 843 Kbps
Width : 720 pixels
Height : 304 pixels
Display aspect ratio : 2.40:1
Frame rate mode : Constant
Frame rate : 25.000 fps
Color space : YUV
Chroma subsampling : 4:2:0
Bit depth : 8 bits
Scan type : Progressive
Compression mode : Lossy
Bits/(Pixel*Frame) : 0.337
Stream size : 1.11 GiB (92%)
Writing library : XviD
Default : Yes
Forced : No

Audio
ID : 2
Format : MPEG Audio
Format version : Version 1
Format profile : Layer 3
Mode : Joint stereo
Mode extension : MS Stereo
Codec ID : A_MPEG/L3
Codec ID/Hint : MP3
Duration : 1h 26mn
Bit rate mode : Constant
Bit rate : 128 Kbps
Channel count : 2 channels
Sampling rate : 44.1 KHz
Compression mode : Lossy
Stream size : 78.9 MiB (6%)
Default : Yes
Forced : No

[/font]

Related Torrents

torrent name size files age seed leech

Sharing Widget


Download this file
1.21 GB
seeders:506
leechers:53
Don Jon 2013 R5 DVDRiP XViD MP3 MURDER

Trackers

tracker name Status checked seeders leechers downloads
udp://coppersurfer.tk:6969/announce
outdated 09 Dec 2013 - - -
udp://9.rarbg.com:2710/announce
outdated 09 Dec 2013 - - -
udp://tracker.openbittorrent.com:80/announce
outdated 09 Dec 2013 - - -
udp://tracker.publicbt.com:80/announce
outdated 09 Dec 2013 - - -
udp://tracker.istole.it:80/announce
outdated 08 Dec 2013 - - -
http://exodus.desync.com/announce
blocked 08 Dec 2013 - - -
http://tracker.trackerfix.com/announce
deleted 08 Dec 2013 - - -
udp://10.rarbg.me:80/announce
pending 09 Dec 2013 420 43 10
udp://ipv4.tracker.harry.lu:80/announce
pending 08 Dec 2013 0 0 0
udp://12.rarbg.me:80/announce
pending 08 Dec 2013 0 0 0
µTorrent compatible trackers list

Locations

name
KickassTorrents
Torrent hash: 2DEC4E16E8C9C57FD513090E40FF020E44E949E8

Top Comments

12
Bombardier297 • 18 Nov 2013, 17:00
R5, in the film business, is a copy of a movie made with a telecine machine from an analog source and is typically of a lower quality than other region releases. The image quality of an R5 release is generally comparable to a DVD Screener release, except without the added scrolling text and black and white scenes that serve to distinguish screeners from commercial DVD releases. R5 quality is somewhat better than transfers produced by movie pirates because the transfer is performed using professional-grade film scanning equipment. It can ALSO refer to DVD region 5. Which also includes all of norther Asian down to India, excluding China, and including Africa too! Which means language has nothing to do with the specifics. Since MANY languages are spoken in both the Asian continent and African continent.

Last edited by Bombardier, 7 months ago

11
anonymous • 25 Nov 2013, 02:51
hey anonymous, you're a tool. gotta love people complaining about stuff from the safety of their computer chair. you fool- let's see you get the movie up. DUH. ...Before you get mad? LOL. suck it!
5
anonymous • 22 Nov 2013, 16:32
Seriously, this is so not okay, sitting people waiting to see "Don Jon" and then choose to find them in Russian, it's not fucking smart done in really should find one in English language everyone can understand , take you right along and check it before I get mad!!

All Comments

audio
5/10
video
8/10
please, leave only comments related to that torrent
or sign-in
0
tharak99198 • 10 July 2014, 15:39 Show comment
Thanks
0
anonymous • 01 January 2014, 04:11 Show comment
audio: 1video: 10
not cool! Its not in english!
0
anonymous • 13 December 2013, 01:17 Show comment
Learn to label better moron!
0
anonymous • 13 December 2013, 01:10 Show comment
Learn how to label bitch!
3
anonymous • 11 December 2013, 22:21 Show comment
its in RUSSIAN !! ughh after downloading for so long !
-1
JK91121247 • 11 December 2013, 23:13 Show comment
so when you click on a torrent do you just download it? without checking if it's English or not I mean it does say it's Russian lol so it's your own stupid fault
Show More

User Opinions

lalupanjo8038, dxm7654502, mrjack12344091, thamoparman3656, Endlessz1346, valcrow1128, arsik_91543, fxrx348, Rooster3473320, juliet1208242 ... And 73 more
xpugur1866, ner01816, Invisible_271425, rollsum1007, Cozmyn_Boss924, mustardtiger506, Robin_Klein382, Svendsen2300322, aleksandar_petreski256, brownman777194 ... And 43 more
Report a bug